如花高清MTV论坛Ⅱ

 找回密码
 立即注册
搜索
热搜: 高清 VOB HD
查看: 472|回复: 20

[HD现场] [百度]降央卓玛 - 我和草原有个约定(160327.CCTV4)[MPG][429M]

[复制链接]
发表于 2018-5-22 00:21:14 | 显示全部楼层

立即注册,回复帖子下载更多高清MTV!

您需要 登录 才可以下载或查看,没有帐号?立即注册

x
本帖最后由 suren 于 2018-5-22 21:13 编辑

General
Complete name                  : D:\降央卓玛 - 我和草原有个约定(160327.CCTV4.中华情.)_MPEG2.mpg
Format                         : MPEG-PS
File size                      : 430 MiB
Duration                       : 3 min 20 s
Overall bit rate mode          : Variable
Overall bit rate               : 18.0 Mb/s

Video
ID                             : 224 (0xE0)
Format                         : MPEG Video
Format version                 : Version 2
Format profile                 : [email protected]
Format settings                : CustomMatrix / BVOP
Format settings, BVOP          : Yes
Format settings, Matrix        : Custom
Format settings, GOP           : M=3, N=15
Format settings, picture struc : Frame
Duration                       : 3 min 20 s
Bit rate mode                  : Variable
Bit rate                       : 17.2 Mb/s
Maximum bit rate               : 17.4 Mb/s
Width                          : 1 920 pixels
Height                         : 1 080 pixels
Display aspect ratio           : 16:9
Frame rate                     : 25.000 FPS
Color space                    : YUV
Chroma subsampling             : 4:2:0
Bit depth                      : 8 bits
Scan type                      : Interlaced
Scan order                     : Top Field First
Compression mode               : Lossy
Bits/(Pixel*Frame)             : 0.332
Time code of first frame       : 00:00:00:00
Time code source               : Group of pictures header
GOP, Open/Closed               : Open
GOP, Open/Closed of first fram : Closed
Stream size                    : 411 MiB (95%)

Audio
ID                             : 189 (0xBD)-128 (0x80)
Format                         : AC-3
Format/Info                    : Audio Coding 3
Muxing mode                    : DVD-Video
Duration                       : 3 min 20 s
Bit rate mode                  : Constant
Bit rate                       : 448 kb/s
Channel(s)                     : 6 channels
Channel positions              : Front: L C R, Side: L R, LFE
Sampling rate                  : 48.0 kHz
Frame rate                     : 31.250 FPS (1536 SPF)
Bit depth                      : 16 bits
Compression mode               : Lossy
Stream size                    : 10.7 MiB (2%)
Service kind                   : Complete Main
降央卓玛 - 我和草原有个约定(160327.CCTV4.中华情.)_MPEG2.mpg.jpg
游客,如果您要查看本帖隐藏内容请回复
[/hide]

评分

参与人数 1爱乐币 +1 活跃度 +1 收起 理由
suren + 1 + 1 感谢您的支持!

查看全部评分

发表于 2018-5-23 12:23:01 | 显示全部楼层
很高清 感謝分享
发表于 2018-5-24 10:42:53 | 显示全部楼层
很高清 感謝分享
发表于 2018-6-15 15:17:45 | 显示全部楼层
喜欢降央卓玛的歌
发表于 2018-7-10 12:31:38 | 显示全部楼层
很高清 感謝分享
发表于 2018-7-23 18:00:52 | 显示全部楼层
高清 感謝分享
发表于 2018-9-5 14:51:42 | 显示全部楼层
好音乐,下载收藏了,多谢分享!
发表于 2018-10-13 12:35:59 | 显示全部楼层
谢谢LZ分享...
发表于 2018-10-28 08:04:44 | 显示全部楼层
多谢楼主分享
发表于 2018-10-28 09:25:14 | 显示全部楼层
可以下载吗
发表于 2018-11-4 20:09:29 | 显示全部楼层
很高清 感謝分享
发表于 2018-11-5 03:24:13 来自手机 | 显示全部楼层
不错的一首MV,感谢分享
发表于 2019-1-27 14:07:31 | 显示全部楼层
喜欢降央卓玛的歌
发表于 2019-1-29 07:23:34 | 显示全部楼层

很高清 感謝分享
发表于 2019-2-21 00:47:28 | 显示全部楼层
我和草原有个约定
发表于 2019-3-25 15:03:03 | 显示全部楼层
好的,收下了

发表于 2019-4-18 20:29:05 来自手机 | 显示全部楼层
真的谢谢你
发表于 2019-5-7 21:44:28 | 显示全部楼层

很高清 感謝分享
发表于 6 天前 | 显示全部楼层
感謝分享 ,感謝分享.
您需要登录后才可以回帖 登录 | 立即注册

本版积分规则

QQ|Archiver|手机版|小黑屋|如花高清MTV论坛Ⅱ

GMT+8, 2019-8-20 16:38 , Processed in 0.057108 second(s), 24 queries .

Powered by Discuz! X3.4

© 2001-2017 Comsenz Inc.

快速回复 返回顶部 返回列表