如花高清MTV论坛Ⅱ

 找回密码
 立即注册
搜索
热搜: 高清 VOB HD
查看: 326|回复: 11

[卡拉OK VOB] [百度]陈慧琳 - 恋爱情色[KTV][VOB][111M]

[复制链接]
发表于 2018-3-23 17:06:02 | 显示全部楼层 |阅读模式

立即注册,回复帖子下载更多高清MTV!

您需要 登录 才可以下载或查看,没有帐号?立即注册

x
[www.ruhuamtv.com]陈慧琳-恋爱情色(粤语.KTV).vob.jpg
General
Complete name                  : K:\[www.ruhuamtv.com]陈慧琳-恋爱情色(粤语.KTV).vob
Format                         : MPEG-PS
File size                      : 111 MiB
Duration                       : 3 min 11 s
Overall bit rate mode          : Variable
Overall bit rate               : 4 858 kb/s

Video
ID                             : 224 (0xE0)
Format                         : MPEG Video
Format version                 : Version 2
Format profile                 : [email protected]
Format settings                : CustomMatrix / BVOP
Format settings, BVOP          : Yes
Format settings, Matrix        : Custom
Format settings, GOP           : M=3, N=18
Format settings, picture struc : Frame
Duration                       : 3 min 11 s
Bit rate mode                  : Variable
Bit rate                       : 3 993 kb/s
Maximum bit rate               : 6 900 kb/s
Width                          : 720 pixels
Height                         : 480 pixels
Display aspect ratio           : 4:3
Frame rate                     : 29.970 (30000/1001) FPS
Standard                       : NTSC
Color space                    : YUV
Chroma subsampling             : 4:2:0
Bit depth                      : 8 bits
Scan type                      : Interlaced
Scan order                     : Bottom Field First
Compression mode               : Lossy
Bits/(Pixel*Frame)             : 0.386
Time code of first frame       : 00:00:00;00
Time code source               : Group of pictures header
GOP, Open/Closed               : Open
GOP, Open/Closed of first fram : Closed
Stream size                    : 91.2 MiB (82%)

Audio #1
ID                             : 192 (0xC0)
Format                         : MPEG Audio
Format version                 : Version 1
Format profile                 : Layer 2
Duration                       : 3 min 11 s
Bit rate mode                  : Constant
Bit rate                       : 320 kb/s
Channel(s)                     : 2 channels
Sampling rate                  : 48.0 kHz
Frame rate                     : 41.667 FPS (1152 SPF)
Compression mode               : Lossy
Delay relative to video        : -33 ms
Stream size                    : 7.31 MiB (7%)

Audio #2
ID                             : 189 (0xBD)-128 (0x80)
Format                         : AC-3
Format/Info                    : Audio Coding 3
Muxing mode                    : DVD-Video
Duration                       : 3 min 11 s
Bit rate mode                  : Constant
Bit rate                       : 448 kb/s
Channel(s)                     : 2 channels
Channel positions              : Front: L R
Sampling rate                  : 48.0 kHz
Frame rate                     : 31.250 FPS (1536 SPF)
Bit depth                      : 16 bits
Compression mode               : Lossy
Delay relative to video        : -33 ms
Stream size                    : 10.2 MiB (9%)
Service kind                   : Complete Main

Menu


游客,如果您要查看本帖隐藏内容请回复
[/hide]

评分

参与人数 1爱乐币 +1 活跃度 +1 收起 理由
suren + 1 + 1 感谢您的支持!

查看全部评分

发表于 2018-4-1 10:03:07 | 显示全部楼层
百度]陈慧琳 - 恋爱情色
发表于 2018-4-1 21:45:39 | 显示全部楼层
顶顶顶顶顶顶顶顶顶顶顶顶顶顶顶顶顶顶顶顶顶顶顶顶顶
发表于 2018-4-6 21:26:18 | 显示全部楼层
不错,vob清晰度有保证。
发表于 2018-4-16 21:03:09 | 显示全部楼层
不错,vob清晰度有保证。
发表于 2018-4-24 16:39:28 | 显示全部楼层
谢谢 谢谢 谢谢
发表于 2018-5-25 23:51:03 来自手机 | 显示全部楼层
这首没有,谢谢,收藏了
发表于 2018-8-15 00:37:30 | 显示全部楼层
DIY 音频的就不参与了 你们玩
发表于 2018-8-15 00:47:28 | 显示全部楼层
Audio #1
ID                             : 192 (0xC0)
Format                         : MPEG Audio
Format version                 : Version 1
Format profile                 : Layer 2
Duration                       : 3 min 11 s
Bit rate mode                  : Constant
Bit rate                       : 320 kb/s
Channel(s)                     : 2 channels
Sampling rate                  : 48.0 kHz
Frame rate                     : 41.667 FPS (1152 SPF)
Compression mode               : Lossy
Delay relative to video        : -33 ms
Stream size                    : 7.31 MiB (7%)

Audio #2
ID                             : 189 (0xBD)-128 (0x80)
Format                         : AC-3
Format/Info                    : Audio Coding 3
Muxing mode                    : DVD-Video
Duration                       : 3 min 11 s
Bit rate mode                  : Constant
Bit rate                       : 448 kb/s
Channel(s)                     : 2 channels
Channel positions              : Front: L R
Sampling rate                  : 48.0 kHz
Frame rate                     : 31.250 FPS (1536 SPF)
Bit depth                      : 16 bits
Compression mode               : Lossy
Delay relative to video        : -33 ms
Stream size                    : 10.2 MiB (9%)

1个7M 1个10M 音频格式也不一样 楼主的 歌库都是这样版本?
您需要登录后才可以回帖 登录 | 立即注册

本版积分规则

QQ|Archiver|手机版|小黑屋|如花高清MTV论坛Ⅱ

GMT+8, 2018-10-22 10:20 , Processed in 0.054197 second(s), 26 queries .

Powered by Discuz! X3.4

© 2001-2017 Comsenz Inc.

快速回复 返回顶部 返回列表