如花高清MTV论坛Ⅱ

 找回密码
 立即注册
搜索
热搜: 高清 VOB HD
查看: 183|回复: 5

[卡拉OK VOB] [百度]林志颖 - 稻草人[KTV][VOB][132M]

[复制链接]
发表于 2018-3-12 14:09:22 | 显示全部楼层 |阅读模式

立即注册,回复帖子下载更多高清MTV!

您需要 登录 才可以下载或查看,没有帐号?立即注册

x
本帖最后由 suren 于 2018-3-13 14:53 编辑
[如花高清MTV论坛Ⅱ]林志颖-稻草人.VOB.jpg
Complete name               : G:\BaiduNetdiskDownload\音乐不断歌友会\[如花高清MTV论坛Ⅱ]林志颖-稻草人.VOB
Format                      : MPEG-PS
File size                   : 133 MiB
Duration                    : 4 min 4 s
Overall bit rate mode       : Constant
Overall bit rate            : 4 553 kb/s

Video
ID                          : 224 (0xE0)
Format                      : MPEG Video
Format version              : Version 2
Format profile              : [email protected]
Format settings, BVOP       : Yes
Format settings, Matrix     : Custom
Format settings, GOP        : M=3, N=15
Format settings, picture st : Frame
Duration                    : 4 min 4 s
Bit rate mode               : Constant
Bit rate                    : 4 000 kb/s
Width                       : 720 pixels
Height                      : 480 pixels
Display aspect ratio        : 4:3
Frame rate                  : 29.970 (30000/1001) FPS
Standard                    : NTSC
Color space                 : YUV
Chroma subsampling          : 4:2:0
Bit depth                   : 8 bits
Scan type                   : Interlaced
Scan order                  : Top Field First
Compression mode            : Lossy
Bits/(Pixel*Frame)          : 0.386
Time code of first frame    : 00:00:00:00
Time code source            : Group of pictures header
GOP, Open/Closed            : Closed
Stream size                 : 117 MiB (88%)

Audio
ID                          : 189 (0xBD)-128 (0x80)
Format                      : AC-3
Format/Info                 : Audio Coding 3
Format settings, Endianness : Big
Muxing mode                 : DVD-Video
Duration                    : 4 min 4 s
Bit rate mode               : Constant
Bit rate                    : 448 kb/s
Channel(s)                  : 6 channels
Channel positions           : Front: L C R, Side: L R, LFE
Sampling rate               : 48.0 kHz
Frame rate                  : 31.250 FPS (1536 SPF)
Bit depth                   : 16 bits
Compression mode            : Lossy
Stream size                 : 13.1 MiB (10%)
Service kind                : Complete Main
网上购买的稀缺资源,望支持,谢谢!......
游客,本帖隐藏的内容需要积分高于 10 才可浏览,您当前积分为 0
解压密码:www.ruhuamtv.com

评分

参与人数 1爱乐币 +1 活跃度 +1 收起 理由
suren + 1 + 1 感谢您的支持!

查看全部评分

发表于 2018-3-12 17:38:43 | 显示全部楼层
看看歌友会,谢谢分享
发表于 2018-3-12 20:03:05 | 显示全部楼层
少年的回忆,非常棒。
发表于 2018-3-13 17:44:49 | 显示全部楼层
这个比较难得
发表于 2018-3-24 22:10:39 | 显示全部楼层
稀缺资源可以收,谢谢楼主分享
发表于 2018-8-31 04:55:28 | 显示全部楼层
网上你买的这样的支援 是歌库吗?如果不是 那你给人坑了 !
您需要登录后才可以回帖 登录 | 立即注册

本版积分规则

QQ|Archiver|手机版|小黑屋|如花高清MTV论坛Ⅱ

GMT+8, 2018-9-25 09:42 , Processed in 0.035715 second(s), 24 queries .

Powered by Discuz! X3.4

© 2001-2017 Comsenz Inc.

快速回复 返回顶部 返回列表