如花高清MTV论坛Ⅱ

 找回密码
 立即注册
搜索
热搜: 高清 VOB HD
查看: 328|回复: 17

[MV VOB] [百度]央视87版《红楼梦》插曲集锦[MPG][2.22G]

[复制链接]
发表于 2017-12-8 21:46:57 | 显示全部楼层 |阅读模式

立即注册,回复帖子下载更多高清MTV!

您需要 登录 才可以下载或查看,没有帐号?立即注册

x
本帖最后由 爱上高清SL 于 2017-12-8 21:52 编辑

[www.ruhuamtv.com]央视87版《红楼梦》插曲集锦.mpg_20171208_211119.884.jpg
[www.ruhuamtv.com]央视87版《红楼梦》插曲集锦.mpg.jpg
General
Complete name                  : G:\[www.ruhuamtv.com]央视87版《红楼梦》插曲集锦.mpg
Format                         : MPEG-PS
File size                      : 2.23 GiB
Duration                       : 46mn 32s
Overall bit rate               : 6 844 Kbps

Video
ID                             : 224 (0xE0)
Format                         : MPEG Video
Format version                 : Version 2
Format profile                 : [email protected]
Format settings, BVOP          : Yes
Format settings, Matrix        : Custom
Format settings, GOP           : Variable
Format settings, picture struc : Frame
Duration                       : 46mn 32s
Bit rate                       : 6 500 Kbps
Width                          : 720 pixels
Height                         : 576 pixels
Display aspect ratio           : 4:3
Frame rate                     : 25.000 fps
Standard                       : PAL
Color space                    : YUV
Chroma subsampling             : 4:2:0
Bit depth                      : 8 bits
Scan type                      : Interlaced
Scan order                     : Bottom Field First
Compression mode               : Lossy
Bits/(Pixel*Frame)             : 0.627
Time code of first frame       : 00:00:00:00
Time code source               : Group of pictures header
GOP, Open/Closed               : Closed
Stream size                    : 2.11 GiB (95%)

Audio
ID                             : 192 (0xC0)
Format                         : MPEG Audio
Format version                 : Version 1
Format profile                 : Layer 2
Duration                       : 46mn 32s
Bit rate mode                  : Constant
Bit rate                       : 224 Kbps
Channel(s)                     : 2 channels
Sampling rate                  : 48.0 KHz
Compression mode               : Lossy
Stream size                    : 74.6 MiB (3%)


解压密码:www.ruhuamtv.com
游客,本帖隐藏的内容需要积分高于 6 才可浏览,您当前积分为 0


评分

参与人数 1爱乐币 +10 活跃度 +1 收起 理由
suren + 10 + 1 感谢您的支持!

查看全部评分

发表于 2017-12-9 08:14:10 | 显示全部楼层
本帖最后由 秋风无情0001 于 2017-12-9 09:12 编辑

谢谢分享,插曲值得欣赏,喜欢原盘里面的原汁原味音轨
发表于 2017-12-9 12:03:18 | 显示全部楼层
非常经典的电视剧歌曲,感谢分享!
发表于 2017-12-9 18:04:40 | 显示全部楼层
谢谢分享 经典电视主题歌
发表于 2017-12-9 20:25:02 | 显示全部楼层
可惜了晓旭
发表于 2017-12-9 21:54:48 | 显示全部楼层
好东西 谢谢分享
发表于 2017-12-10 11:31:38 | 显示全部楼层
真是谢谢楼主了
发表于 2017-12-11 21:17:14 | 显示全部楼层
感谢楼主分享
发表于 2017-12-19 22:34:18 | 显示全部楼层
喜欢原盘里面的原汁原味音轨
发表于 2017-12-26 21:54:23 | 显示全部楼层
这个看看,谢谢楼主提供!
发表于 2017-12-27 17:16:15 | 显示全部楼层
非常喜欢的作品。。
发表于 2018-1-3 16:06:34 | 显示全部楼层
好东西,谢谢楼主!!!!!!!!!!!!!
发表于 2018-1-10 16:43:08 | 显示全部楼层
谢谢分享 好东西
发表于 2018-1-10 20:27:25 | 显示全部楼层
谢谢分享谢谢分享谢谢分享
发表于 2018-1-11 15:13:21 | 显示全部楼层
我一直在你身旁从未走远
发表于 2018-4-16 22:35:43 | 显示全部楼层
我一直在你身旁从未走远
发表于 2018-4-17 06:20:08 | 显示全部楼层
秋风无情0001 发表于 2017-12-9 08:14
谢谢分享,插曲值得欣赏,喜欢原盘里面的原汁原味音轨

哥们能把下载地址分享一下吗积分太难弄了
您需要登录后才可以回帖 登录 | 立即注册

本版积分规则

QQ|Archiver|手机版|小黑屋|如花高清MTV论坛Ⅱ

GMT+8, 2018-4-25 22:42 , Processed in 0.089014 second(s), 24 queries .

Powered by Discuz! X3.4

© 2001-2017 Comsenz Inc.

快速回复 返回顶部 返回列表