如花高清MTV论坛Ⅱ

 找回密码
 立即注册
搜索
热搜: 高清 VOB HD
查看: 550|回复: 16

[DVD花絮] [百度]83版《射雕英雄传》制作特辑[VOB][1.95G]

[复制链接]
发表于 2017-11-24 17:50:06 | 显示全部楼层 |阅读模式

立即注册,回复帖子下载更多高清MTV!

您需要 登录 才可以下载或查看,没有帐号?立即注册

x
本帖最后由 suren 于 2017-11-24 19:47 编辑

86年《射雕英雄传》制作特辑.vob.jpg
General
Complete name                  : C:\Users\Administrator\Desktop\新建文件夹\86年《射雕英雄传》制作特辑.vob
Format                         : MPEG-PS
File size                      : 1.95 GiB
Duration                       : 44mn 8s
Overall bit rate               : 6 323 Kbps

Video
ID                             : 224 (0xE0)
Format                         : MPEG Video
Format version                 : Version 2
Format profile                 : [email protected]
Format settings, BVOP          : Yes
Format settings, Matrix        : Custom
Format settings, GOP           : M=3, N=15
Format settings, picture struc : Frame
Duration                       : 44mn 8s
Bit rate                       : 6 000 Kbps
Width                          : 720 pixels
Height                         : 480 pixels
Display aspect ratio           : 4:3
Frame rate                     : 29.970 (30000/1001) fps
Standard                       : NTSC
Color space                    : YUV
Chroma subsampling             : 4:2:0
Bit depth                      : 8 bits
Scan type                      : Interlaced
Scan order                     : Top Field First
Compression mode               : Lossy
Bits/(Pixel*Frame)             : 0.579
Time code of first frame       : 00:02:20;03
Time code source               : Group of pictures header
GOP, Open/Closed               : Open
GOP, Open/Closed of first fram : Closed
Stream size                    : 1.85 GiB (95%)

Audio
ID                             : 189 (0xBD)-128 (0x80)
Format                         : AC-3
Format/Info                    : Audio Coding 3
Mode extension                 : CM (complete main)
Format settings, Endianness    : Big
Muxing mode                    : DVD-Video
Duration                       : 44mn 8s
Bit rate mode                  : Constant
Bit rate                       : 192 Kbps
Channel(s)                     : 2 channels
Channel positions              : Front: L R
Sampling rate                  : 48.0 KHz
Frame rate                     : 31.250 fps (1536 spf)
Compression mode               : Lossy
Stream size                    : 60.6 MiB (3%)

Menu

游客,本帖隐藏的内容需要积分高于 9 才可浏览,您当前积分为 0



评分

参与人数 1爱乐币 +10 活跃度 +1 收起 理由
suren + 10 + 1 感谢您的支持!

查看全部评分

发表于 2017-11-24 18:18:46 | 显示全部楼层
经典武侠片,谢谢!
发表于 2017-11-24 20:51:10 | 显示全部楼层
还不错嘛收下了谢谢楼主分享
发表于 2017-11-25 00:41:53 | 显示全部楼层
感谢流浪歌手爱上高清SL提供分享...83版《射雕英雄传》制作特辑[VOB][1.95G]
发表于 2017-11-25 09:19:11 | 显示全部楼层
非常感谢如此经典的珍稀资源!!!
发表于 2017-11-25 10:40:49 | 显示全部楼层
感谢分享,太经典了。。。。
发表于 2017-11-26 01:59:19 | 显示全部楼层
效果挺不错的哦,谢谢
发表于 2017-11-26 16:14:32 | 显示全部楼层
谢谢楼主分享
发表于 2017-11-26 20:12:16 | 显示全部楼层
不错的资源,感谢分享!
发表于 2017-11-27 20:17:35 | 显示全部楼层
经典电视剧的MV,这种MV基本少见了,谢谢分享
发表于 2017-12-1 01:04:39 | 显示全部楼层
很不错,好像以前看过
发表于 2017-12-2 10:52:38 | 显示全部楼层
这个看看,谢谢楼主提供!
发表于 2017-12-7 20:36:02 | 显示全部楼层
谢谢分享拿走了
发表于 2018-1-3 20:43:02 | 显示全部楼层
很珍贵的内容呀
发表于 2018-1-5 20:06:27 | 显示全部楼层
多谢分享 辛苦了
发表于 5 天前 | 显示全部楼层
谢谢楼主分享
发表于 5 天前 | 显示全部楼层
没看过这个。
您需要登录后才可以回帖 登录 | 立即注册

本版积分规则

QQ|Archiver|手机版|小黑屋|如花高清MTV论坛Ⅱ

GMT+8, 2018-7-22 07:13 , Processed in 0.059997 second(s), 26 queries .

Powered by Discuz! X3.4

© 2001-2017 Comsenz Inc.

快速回复 返回顶部 返回列表