查看: 57|回复: 0

[HD MV] [百度]史蒂夫.范&拉尔夫·马奇奥-飙琴(电影截取)[MPG][395M]

[复制链接]
发表于 2017-9-12 14:15:05 | 显示全部楼层 |阅读模式

立即注册,回复帖子下载更多高清MTV!

您需要 登录 才可以下载或查看,没有帐号?立即注册

x
本帖最后由 爱上高清SL 于 2017-9-12 14:18 编辑

史蒂夫.范&拉尔夫·马奇奥-飙琴(电影《十字路口.1986》片段截取)
史蒂夫.范&拉尔夫·马奇奥-飙琴(电影《十字路口.1986》片段截取).mpg.jpg.jpg
GeneralComplete name                  : D:\史蒂夫.范&拉尔夫·马奇奥-飙琴(电影《十字路口.1986》片段截取).mpg
Format                         : MPEG-PS
File size                      : 395 MiB
Duration                       : 8mn 32s
Overall bit rate mode          : Constant
Overall bit rate               : 6 471 Kbps
Writing library                : x264 - core 112

Video
ID                             : 224 (0xE0)
Format                         : AVC
Format/Info                    : Advanced Video Codec
Format profile                 : High@L4.1
Format settings, CABAC         : Yes
Format settings, ReFrames      : 3 frames
Duration                       : 8mn 32s
Bit rate mode                  : Constant
Bit rate                       : 6 000 Kbps / 6 000 Kbps
Width                          : 1 920 pixels
Height                         : 1 080 pixels
Display aspect ratio           : 16:9
Frame rate                     : 29.970 (30000/1001) fps
Standard                       : NTSC
Color space                    : YUV
Chroma subsampling             : 4:2:0
Bit depth                      : 8 bits
Scan type                      : Progressive
Bits/(Pixel*Frame)             : 0.097
Stream size                    : 364 MiB (92%)
Writing library                : x264 core 112
Encoding settings              : cabac=1 / ref=3 / deblock=1:0:0 / analyse=0x3:0x113 / me=hex / subme=7 / psy=1 / psy_rd=1.00:0.00 / mixed_ref=1 / me_range=16 / chroma_me=1 / trellis=1 / 8x8dct=1 / cqm=2 / deadzone=21,11 / fast_pskip=1 / chroma_qp_offset=-2 / threads=6 / sliced_threads=0 / slices=1 / nr=0 / decimate=1 / interlaced=0 / constrained_intra=0 / bframes=3 / b_pyramid=0 / b_adapt=1 / b_bias=0 / direct=1 / weightb=1 / open_gop=1 / weightp=2 / keyint=250 / keyint_min=25 / scenecut=40 / intra_refresh=0 / rc_lookahead=40 / rc=cbr / mbtree=1 / bitrate=6000 / ratetol=1.0 / qcomp=0.60 / qpmin=3 / qpmax=51 / qpstep=4 / vbv_maxrate=6000 / vbv_bufsize=5996 / nal_hrd=cbr / frame-packing=0 / ip_ratio=1.40 / aq=1:1.00
Color range                    : Limited
Color primaries                : BT.709
Transfer characteristics       : BT.709
Matrix coefficients            : BT.709

Audio
ID                             : 189 (0xBD)-128 (0x80)
Format                         : AC-3
Format/Info                    : Audio Coding 3
Mode extension                 : CM (complete main)
Format settings, Endianness    : Big
Muxing mode                    : DVD-Video
Duration                       : 8mn 32s
Bit rate mode                  : Constant
Bit rate                       : 384 Kbps
Channel(s)                     : 6 channels
Channel positions              : Front: L C R, Side: L R, LFE
Sampling rate                  : 48.0 KHz
Frame rate                     : 31.250 fps (1536 spf)
Compression mode               : Lossy
Stream size                    : 23.5 MiB (6%)

电影《十字路口 1986》截取压缩精彩片段
游客,如果您要查看本帖隐藏内容请回复









评分

参与人数 1爱乐币 +1 收起 理由
admin + 1 感谢您的支持!

查看全部评分

您需要登录后才可以回帖 登录 | 立即注册

本版积分规则

QQ|小黑屋|手机版|Archiver|如花高清MTV论坛Ⅱ

GMT+8, 2017-9-25 05:10 , Processed in 0.023497 second(s), 26 queries .

Powered by Discuz! X3.1

© 2001-2013 Comsenz Inc. Design Singcere!

快速回复 返回顶部 返回列表