查看: 57|回复: 2

[MV VOB] [百度]蔡妍 - 两个人 MV版[TP][137M]

[复制链接]
发表于 2017-9-12 13:57:39 | 显示全部楼层 |阅读模式

立即注册,回复帖子下载更多高清MTV!

您需要 登录 才可以下载或查看,没有帐号?立即注册

x
蔡妍 - 两个人 MV版.tp.jpg
General
ID                             : 22 (0x16)
Complete name                  : F:\2222222222\蔡妍 - 两个人 MV版.tp
Format                         : MPEG-TS
File size                      : 137 MiB
Duration                       : 3mn 46s
Overall bit rate mode          : Variable
Overall bit rate               : 5 082 Kbps

Video
ID                             : 17 (0x11)
Menu ID                        : 1 (0x1)
Format                         : MPEG Video
Format version                 : Version 2
Format profile                 : Main@Main
Format settings, BVOP          : Yes
Format settings, Matrix        : Custom
Format settings, GOP           : Variable
Format settings, picture struc : Frame
Codec ID                       : 2
Duration                       : 3mn 0s
Bit rate                       : 4 637 Kbps
Maximum bit rate               : 5 991 Kbps
Width                          : 720 pixels
Height                         : 480 pixels
Display aspect ratio           : 4:3
Frame rate                     : 29.970 (30000/1001) fps
Standard                       : NTSC
Color space                    : YUV
Chroma subsampling             : 4:2:0
Bit depth                      : 8 bits
Scan type                      : Interlaced
Scan order                     : Top Field First
Compression mode               : Lossy
Bits/(Pixel*Frame)             : 0.448
Time code of first frame       : 14:25:01;09
Time code source               : Group of pictures header
GOP, Open/Closed               : Open
Stream size                    : 99.6 MiB (73%)

Audio
ID                             : 20 (0x14)
Menu ID                        : 1 (0x1)
Format                         : AC-3
Format/Info                    : Audio Coding 3
Mode extension                 : CM (complete main)
Format settings, Endianness    : Big
Codec ID                       : 129
Duration                       : 3mn 0s
Bit rate mode                  : Constant
Bit rate                       : 192 Kbps
Channel(s)                     : 2 channels
Channel positions              : Front: L R
Sampling rate                  : 48.0 KHz
Frame rate                     : 31.250 fps (1536 spf)
Compression mode               : Lossy
Delay relative to video        : -72ms
Stream size                    : 4.13 MiB (3%)


游客,如果您要查看本帖隐藏内容请回复





评分

参与人数 1爱乐币 +1 活跃度 +1 收起 理由
suren + 1 + 1 感谢您的支持!

查看全部评分

发表于 2017-9-12 14:21:38 | 显示全部楼层
谢谢分享,下来看看
发表于 2017-9-12 15:35:47 | 显示全部楼层
感谢楼主,谢谢分享
您需要登录后才可以回帖 登录 | 立即注册

本版积分规则

QQ|小黑屋|手机版|Archiver|如花高清MTV论坛Ⅱ

GMT+8, 2017-9-25 05:18 , Processed in 0.022853 second(s), 25 queries .

Powered by Discuz! X3.1

© 2001-2013 Comsenz Inc. Design Singcere!

快速回复 返回顶部 返回列表