如花高清MTV论坛Ⅱ

 找回密码
 立即注册
搜索
热搜: 高清 VOB HD
查看: 1652|回复: 44

[卡拉OK VOB] [百度]叶倩文-酒干倘卖无(演-双轨-KTV)[MPG][367M]

[复制链接]
发表于 2017-7-2 22:36:43 | 显示全部楼层

立即注册,回复帖子下载更多高清MTV!

您需要 登录 才可以下载或查看,没有帐号?立即注册

x
本帖最后由 爱上高清SL 于 2017-7-2 22:39 编辑

叶倩文-酒干倘卖无(演-双轨-KTV).mpg.jpg
General
Complete name                  : K:\叶倩文-酒干倘卖无(演-双轨-KTV).mpg
Format                         : MPEG-PS
File size                      : 367 MiB
Duration                       : 5mn 23s
Overall bit rate mode          : Variable
Overall bit rate               : 9 523 Kbps

Video
ID                             : 224 (0xE0)
Format                         : MPEG Video
Format version                 : Version 2
Format profile                 : [email protected]
Format settings, BVOP          : Yes
Format settings, Matrix        : Custom
Format settings, GOP           : M=3, N=15
Format settings, picture struc : Frame
Duration                       : 5mn 23s
Bit rate mode                  : Variable
Bit rate                       : 8 886 Kbps
Maximum bit rate               : 12.4 Mbps
Width                          : 1 280 pixels
Height                         : 720 pixels
Display aspect ratio           : 4:3
Frame rate                     : 29.970 (30000/1001) fps
Color space                    : YUV
Chroma subsampling             : 4:2:0
Bit depth                      : 8 bits
Scan type                      : Interlaced
Scan order                     : Bottom Field First
Compression mode               : Lossy
Bits/(Pixel*Frame)             : 0.322
Time code of first frame       : 00:00:00:00
Time code source               : Group of pictures header
GOP, Open/Closed               : Open
GOP, Open/Closed of first fram : Closed
Stream size                    : 342 MiB (93%)

Audio #1
ID                             : 192 (0xC0)
Format                         : MPEG Audio
Format version                 : Version 1
Format profile                 : Layer 2
Duration                       : 5mn 23s
Bit rate mode                  : Constant
Bit rate                       : 224 Kbps
Channel(s)                     : 2 channels
Sampling rate                  : 48.0 KHz
Compression mode               : Lossy
Stream size                    : 8.63 MiB (2%)

Audio #2
ID                             : 193 (0xC1)
Format                         : MPEG Audio
Format version                 : Version 1
Format profile                 : Layer 2
Duration                       : 5mn 23s
Bit rate mode                  : Constant
Bit rate                       : 224 Kbps
Channel(s)                     : 2 channels
Sampling rate                  : 48.0 KHz
Compression mode               : Lossy
Stream size                    : 8.63 MiB (2%)


游客,如果您要查看本帖隐藏内容请回复




评分

参与人数 1爱乐币 +1 收起 理由
admin + 1 感谢您的支持!

查看全部评分

发表于 2017-7-3 01:13:51 | 显示全部楼层
本帖最后由 xuyunfu 于 2017-7-3 01:18 编辑

谢谢,这个值得收藏下来!请问一下你那有没有T-ara-Why Are You Being Like This这首歌的蓝光版本M2TS格式的。我原来有的是多年前从115网盘下载的容量大约在1个G左右2012年的时候硬盘坏了后来再也没能从网上找到蓝光版本的,非常喜欢这首歌现在只找到压缩版本的,如果有的话希望能和我分享下这个是压缩版本的供参考
http://pan.baidu.com/s/1hrYbDDq
发表于 2017-7-3 08:40:36 | 显示全部楼层
謝謝你的熱情分享了~~
发表于 2017-7-3 20:09:00 | 显示全部楼层
谢谢分享这么好的华语MV ,谢谢 !!!
 楼主| 发表于 2017-7-3 22:56:22 | 显示全部楼层
xuyunfu 发表于 2017-7-3 01:13
谢谢,这个值得收藏下来!请问一下你那有没有T-ara-Why Are You Being Like This这首歌的蓝光版本M2TS格式 ...

这首歌我只有现场版的 还是在网盘里 MV版的以前貌似也下载过 应该也是avi格式 蓝光版的从来没见过 理论上应该是有的 因为TARA的蓝光我以前也下过不少…刚刚我也找了好一会 确实很难找到你说的那个1G的版本 实在帮不了你 抱歉了…还有 既然你说你的115里有 模糊查找试试 比如输入m2ts TARA 或者歌名 等等 找到了大不了在下载一次好了 我现在115会员早过期了 不过里面的文件还是可以下载出来的 就是网速超慢
发表于 2017-7-4 17:56:40 | 显示全部楼层
现场版的歌曲!!!!!!!!!!!!!!谢谢啦
发表于 2017-7-4 17:57:23 | 显示全部楼层
爱上高清SL 发表于 2017-7-3 22:56
这首歌我只有现场版的 还是在网盘里 MV版的以前貌似也下载过 应该也是avi格式 蓝光版的从来没见过 理论上 ...

这首歌是真的有蓝光版本的在一张T-ara的早期韩版蓝光专辑中,现在网上搜索到的都是日版的蓝光MV。那张韩版的蓝光专辑现在找不到了!如果不是当年的硬盘坏了的话我肯定会将那张专辑发出来都是早期的高清MV很珍贵!包括很多从如花一期论坛下载的歌曲现在很难再找到资源了很后悔当年未将这些资源备份到网盘里
发表于 2017-7-12 12:16:24 | 显示全部楼层
如果您要查看本帖隐藏内容请回复

评分

参与人数 1爱乐币 -5 收起 理由
admin -5 恶意灌水

查看全部评分

发表于 2017-7-26 14:17:57 | 显示全部楼层
很喜欢,感谢分享
发表于 2017-7-29 14:28:51 | 显示全部楼层
叶倩文演绎的也很精彩  感谢分享
发表于 2017-9-25 20:41:06 | 显示全部楼层
真的非常精采的歌曲,只能再次感謝樓主無私分享
发表于 2017-10-6 07:58:38 | 显示全部楼层
谢谢分享,支持!
发表于 2017-11-24 17:04:52 | 显示全部楼层
好经典,很好听的一首老歌,谢谢楼主!
发表于 2017-11-29 22:39:28 | 显示全部楼层
这首歌还有叶倩文版的
发表于 2017-12-7 11:56:39 | 显示全部楼层
谢谢分享这么好的华语MV ,谢谢 !!!
发表于 2018-3-7 11:08:20 | 显示全部楼层
经典歌曲现场版的不错
发表于 2018-4-4 09:29:15 | 显示全部楼层
提示: 作者被禁止或删除 内容自动屏蔽
发表于 2018-4-5 11:19:16 | 显示全部楼层
谢谢了楼主
发表于 2018-5-29 09:35:54 | 显示全部楼层
谢谢楼主无私分享,下载收藏了
发表于 2018-6-9 01:05:32 | 显示全部楼层
叶倩文-酒干倘卖无也不错
您需要登录后才可以回帖 登录 | 立即注册

本版积分规则

QQ|Archiver|手机版|小黑屋|如花高清MTV论坛Ⅱ

GMT+8, 2019-10-20 08:53 , Processed in 0.063567 second(s), 27 queries .

Powered by Discuz! X3.4

© 2001-2017 Comsenz Inc.

快速回复 返回顶部 返回列表