如花高清MTV论坛Ⅱ

 找回密码
 立即注册
搜索
热搜: 高清 VOB HD
查看: 13028|回复: 102

[卡拉OK VOB] [百度]郭美美 - 不怕不怕[KTV][MPG][145M]

  [复制链接]
发表于 2017-6-9 22:11:05 | 显示全部楼层

立即注册,回复帖子下载更多高清MTV!

您需要 登录 才可以下载或查看,没有账号?立即注册

x
本帖最后由 爱上高清SL 于 2017-6-10 02:06 编辑

郭美美 - 不怕不怕 KTV.mpg.jpg
General
Complete name                  : K:\郭美美 - 不怕不怕 KTV.mpg
Format                         : MPEG-PS
File size                      : 145 MiB
Duration                       : 3mn 47s
Overall bit rate               : 5 343 Kbps

Video
ID                             : 224 (0xE0)
Format                         : MPEG Video
Format version                 : Version 2
Format profile                 : Main@Main
Format settings, BVOP          : Yes
Format settings, Matrix        : Custom
Format settings, GOP           : M=3, N=15
Format settings, picture struc : Frame
Duration                       : 3mn 47s
Bit rate                       : 4 500 Kbps
Width                          : 704 pixels
Height                         : 480 pixels
Display aspect ratio           : 4:3
Frame rate                     : 29.970 (30000/1001) fps
Standard                       : NTSC
Color space                    : YUV
Chroma subsampling             : 4:2:0
Bit depth                      : 8 bits
Scan type                      : Interlaced
Scan order                     : Top Field First
Compression mode               : Lossy
Bits/(Pixel*Frame)             : 0.444
Time code of first frame       : 00:00:00:00
Time code source               : Group of pictures header
GOP, Open/Closed               : Open
Stream size                    : 121 MiB (84%)

Audio #1
ID                             : 192 (0xC0)
Format                         : MPEG Audio
Format version                 : Version 1
Format profile                 : Layer 2
Duration                       : 3mn 47s
Bit rate mode                  : Constant
Bit rate                       : 384 Kbps
Channel(s)                     : 2 channels
Sampling rate                  : 48.0 KHz
Compression mode               : Lossy
Delay relative to video        : -67ms
Stream size                    : 10.4 MiB (7%)

Audio #2
ID                             : 193 (0xC1)
Format                         : MPEG Audio
Format version                 : Version 1
Format profile                 : Layer 2
Duration                       : 3mn 47s
Bit rate mode                  : Constant
Bit rate                       : 384 Kbps
Channel(s)                     : 2 channels
Sampling rate                  : 48.0 KHz
Compression mode               : Lossy
Delay relative to video        : -67ms
Stream size                    : 10.4 MiB (7%)


游客,如果您要查看本帖隐藏内容请回复




评分

参与人数 1爱乐币 +1 活跃度 +1 收起 理由
suren + 1 + 1 感谢您的支持!

查看全部评分

 楼主| 发表于 2017-6-10 02:12:38 | 显示全部楼层
zypdeziwo 发表于 2017-6-10 01:27
这贴链接有误,楼主看一下,是完美世界的地址!

帖子编辑好了 手机弄的 太费事了 有劳你提醒了!
发表于 2017-6-10 01:27:54 | 显示全部楼层
本帖最后由 zypdeziwo 于 2017-6-10 01:33 编辑

这贴链接有误,楼主看一下,是完美世界的地址!
发表于 2017-6-10 10:26:52 | 显示全部楼层
爱上高清SL 发表于 2017-6-10 02:12
帖子编辑好了 手机弄的 太费事了 有劳你提醒了!

嗯,分享辛苦!感谢
发表于 2017-6-10 11:45:37 | 显示全部楼层
郭美美的歌好听。
发表于 2017-6-10 17:11:10 | 显示全部楼层
多谢分享    收下先
发表于 2017-6-11 12:50:21 | 显示全部楼层
感谢楼主, 谢谢分享
发表于 2017-6-12 02:23:30 | 显示全部楼层
很喜欢这首歌
发表于 2017-6-12 12:35:03 | 显示全部楼层
O(∩_∩)O谢谢
发表于 2017-6-15 07:10:13 | 显示全部楼层
谢谢楼主分享,很喜欢这首歌!
发表于 2017-6-16 22:47:18 | 显示全部楼层
小学时听的歌
发表于 2017-6-19 17:15:51 | 显示全部楼层
效果好像还不错的样子,值得收藏谢谢了
发表于 2017-6-20 14:45:50 | 显示全部楼层
很好听,非常喜欢,谢谢分享
发表于 2017-7-3 13:49:25 | 显示全部楼层
可以可以,很可爱啊
发表于 2017-8-14 18:41:37 | 显示全部楼层
成名曲啊,很好听
发表于 2017-10-6 08:02:57 | 显示全部楼层
谢谢分享,感谢!
发表于 2017-10-17 22:25:59 | 显示全部楼层
很喜欢听美美的歌
发表于 2018-1-10 20:32:26 | 显示全部楼层
很出名的一首歌 。
发表于 2018-1-29 10:03:04 | 显示全部楼层
谢谢分享谢谢分享
发表于 2018-3-1 17:29:59 | 显示全部楼层
有点滋味,谢谢分享
发表于 2018-4-18 03:54:30 | 显示全部楼层
我神经比较大,我不怕不怕不怕啦~
发表于 2018-5-9 23:43:19 | 显示全部楼层
感谢楼主及时编辑
您需要登录后才可以回帖 登录 | 立即注册

本版积分规则

QQ|Archiver|手机版|小黑屋|如花高清MTV论坛Ⅱ

GMT+8, 2024-6-22 13:47 , Processed in 0.399414 second(s), 27 queries .

Powered by Discuz! X3.4

Copyright © 2001-2023, Tencent Cloud.

快速回复 返回顶部 返回列表