如花高清MTV论坛Ⅱ

 找回密码
 立即注册
搜索
热搜: 高清 VOB HD
查看: 929|回复: 27

[卡拉OK VOB] [百度]邓丽君 - 爱像一首歌(双音轨.KTV)[VOB][201M]

[复制链接]
发表于 2017-5-2 23:37:26 | 显示全部楼层

立即注册,回复帖子下载更多高清MTV!

您需要 登录 才可以下载或查看,没有帐号?立即注册

x
邓丽君 - 爱像一首歌(双音轨.KTV).vob.jpg

General
Complete name                  : C:\Users\Administrator\Desktop\邓丽君 - 爱像一首歌(双音轨.KTV).vob
Format                         : MPEG-PS
File size                      : 201 MiB
Duration                       : 3mn 59s
Overall bit rate mode          : Variable
Overall bit rate               : 7 035 Kbps

Video
ID                             : 224 (0xE0)
Format                         : MPEG Video
Format version                 : Version 2
Format profile                 : [email protected]
Format settings, BVOP          : No
Format settings, Matrix        : Custom
Format settings, GOP           : Variable
Format settings, picture struc : Frame
Duration                       : 3mn 59s
Bit rate mode                  : Variable
Bit rate                       : 5 999 Kbps
Maximum bit rate               : 9 000 Kbps
Width                          : 720 pixels
Height                         : 480 pixels
Display aspect ratio           : 4:3
Frame rate                     : 29.970 (30000/1001) fps
Standard                       : NTSC
Color space                    : YUV
Chroma subsampling             : 4:2:0
Bit depth                      : 8 bits
Scan type                      : Interlaced
Scan order                     : Bottom Field First
Compression mode               : Lossy
Bits/(Pixel*Frame)             : 0.579
Time code of first frame       : 00:00:00:00
Time code source               : Group of pictures header
GOP, Open/Closed               : Open
GOP, Open/Closed of first fram : Closed
Stream size                    : 172 MiB (85%)

Audio #1
ID                             : 189 (0xBD)-128 (0x80)
Format                         : AC-3
Format/Info                    : Audio Coding 3
Mode extension                 : CM (complete main)
Format settings, Endianness    : Big
Muxing mode                    : DVD-Video
Duration                       : 3mn 59s
Bit rate mode                  : Constant
Bit rate                       : 448 Kbps
Channel(s)                     : 6 channels
Channel positions              : Front: L C R, Side: L R, LFE
Sampling rate                  : 48.0 KHz
Frame rate                     : 31.250 fps (1536 spf)
Compression mode               : Lossy
Delay relative to video        : 32ms
Stream size                    : 12.8 MiB (6%)

Audio #2
ID                             : 189 (0xBD)-129 (0x81)
Format                         : AC-3
Format/Info                    : Audio Coding 3
Mode extension                 : CM (complete main)
Format settings, Endianness    : Big
Muxing mode                    : DVD-Video
Duration                       : 3mn 59s
Bit rate mode                  : Constant
Bit rate                       : 448 Kbps
Channel(s)                     : 6 channels
Channel positions              : Front: L C R, Side: L R, LFE
Sampling rate                  : 48.0 KHz
Frame rate                     : 31.250 fps (1536 spf)
Compression mode               : Lossy
Delay relative to video        : 32ms
Stream size                    : 12.8 MiB (6%)

Menu


游客,如果您要查看本帖隐藏内容请回复



评分

参与人数 1爱乐币 +1 收起 理由
admin + 1 感谢您的支持!

查看全部评分

发表于 2017-5-3 12:13:45 | 显示全部楼层
感谢楼主, 谢谢分享
发表于 2017-5-3 20:03:49 | 显示全部楼层
不错嘛收藏了先谢谢分享
发表于 2017-5-3 22:52:54 | 显示全部楼层
很不错的一首歌
发表于 2017-5-7 06:46:15 | 显示全部楼层
谢谢了很fkc
发表于 2017-6-22 07:14:08 | 显示全部楼层
感谢楼主, 谢谢分享。
发表于 2017-7-20 19:06:31 | 显示全部楼层
感谢楼主, 谢谢分享
发表于 2017-9-24 10:38:01 | 显示全部楼层
太喜歡鄧麗君的每一首歌曲
感恩不盡
发表于 2018-3-20 16:39:30 | 显示全部楼层
谢谢流浪歌手爱上高清SL分享....邓丽君 - 爱像一首歌(双音轨.KTV)[VOB][201M].
发表于 2018-5-29 09:48:13 | 显示全部楼层
楼主辛苦了,谢谢分享。
发表于 2018-6-6 01:15:57 | 显示全部楼层
谢谢楼主分享
发表于 2019-2-27 11:07:50 | 显示全部楼层
真是谢谢楼主了
发表于 2019-6-8 08:06:04 | 显示全部楼层
提示: 作者被禁止或删除 内容自动屏蔽
发表于 2019-7-6 17:14:01 | 显示全部楼层
感谢楼主分享!楼主辛苦了!
发表于 2019-8-6 14:01:20 | 显示全部楼层
好资源,感谢楼主分享
发表于 2020-2-22 16:59:56 | 显示全部楼层
华丽的旋律和歌声,仿佛让心情很愉悦的一首歌,感谢分享!
发表于 2020-3-22 10:03:55 | 显示全部楼层
很不错的一首歌
发表于 2020-3-31 15:54:35 | 显示全部楼层
非常经典的资源,谢谢分享
发表于 2020-5-8 10:06:03 | 显示全部楼层
好听的歌,人美歌甜。
发表于 2020-6-10 09:18:16 | 显示全部楼层

感谢楼主, 谢谢分享
发表于 2020-6-11 16:36:04 | 显示全部楼层
好伴奏一定要收藏并感谢。。
您需要登录后才可以回帖 登录 | 立即注册

本版积分规则

QQ|Archiver|手机版|小黑屋|如花高清MTV论坛Ⅱ

GMT+8, 2021-1-20 21:04 , Processed in 0.066012 second(s), 24 queries .

Powered by Discuz! X3.4

© 2001-2017 Comsenz Inc.

快速回复 返回顶部 返回列表