如花高清MTV论坛Ⅱ

 找回密码
 立即注册
搜索
热搜: 高清 VOB HD
查看: 167|回复: 7

[高清演示] [百度]刘真 - 性感魅舞(3挡-3D.左右分屏)[M2TS][2.04G]

[复制链接]
发表于 2017-3-11 15:27:50 | 显示全部楼层 |阅读模式

立即注册,回复帖子下载更多高清MTV!

您需要 登录 才可以下载或查看,没有帐号?立即注册

x
本帖最后由 suren 于 2017-3-11 16:50 编辑

1.刘真.性感魅舞.Liu.Zhen.Sexy.Dance.3DMTV.m2ts.jpg
2.刘真.性感魅舞.Liu.Zhen.Sexy.Dance.3DMTV.m2ts.jpg

3.刘真.性感魅舞.Liu.Zhen.Sexy.Dance.3DMTV.m2ts.jpg

General
ID                             : 0 (0x0)
Complete name                  : F:\刘真.性感魅舞.Liu.Zhen.Sexy.Dance.3DMTV(3挡-3D.左右分屏)\3.刘真.性感魅舞.Liu.Zhen.Sexy.Dance.3DMTV.m2ts
Format                         : BDAV
Format/Info                    : Blu-ray Video
File size                      : 695 MiB
Duration                       : 2mn 28s
Overall bit rate mode          : Variable
Overall bit rate               : 39.2 Mbps
Maximum Overall bit rate       : 48.0 Mbps

Video
ID                             : 4113 (0x1011)
Menu ID                        : 1 (0x1)
Format                         : AVC
Format/Info                    : Advanced Video Codec
Format profile                 : [email protected]
Format settings, CABAC         : Yes
Format settings, ReFrames      : 2 frames
Codec ID                       : 27
Duration                       : 2mn 28s
Bit rate mode                  : Variable
Bit rate                       : 36.1 Mbps
Maximum bit rate               : 37.5 Mbps
Width                          : 1 920 pixels
Height                         : 1 080 pixels
Display aspect ratio           : 16:9
Frame rate                     : 23.976 (24000/1001) fps
Color space                    : YUV
Chroma subsampling             : 4:2:0
Bit depth                      : 8 bits
Scan type                      : Progressive
Bits/(Pixel*Frame)             : 0.727
Stream size                    : 641 MiB (92%)
Writing library                : x264 core
Color range                    : Limited
Color primaries                : BT.709
Transfer characteristics       : BT.709
Matrix coefficients            : BT.709

Audio
ID                             : 4352 (0x1100)
Menu ID                        : 1 (0x1)
Format                         : PCM
Format settings, Endianness    : Big
Format settings, Sign          : Signed
Muxing mode                    : Blu-ray
Codec ID                       : 128
Duration                       : 2mn 28s
Bit rate mode                  : Constant
Bit rate                       : 1 536 Kbps
Channel(s)                     : 2 channels
Channel positions              : Front: L R
Sampling rate                  : 48.0 KHz
Bit depth                      : 16 bits
Stream size                    : 27.2 MiB (4%)
游客,如果您要查看本帖隐藏内容请回复





评分

参与人数 1爱乐币 +5 活跃度 +1 收起 理由
suren + 5 + 1 感谢您的支持!

查看全部评分

发表于 2017-3-11 22:42:33 | 显示全部楼层
这个多年前就收藏过,3D效果超级棒!~
发表于 2017-3-13 15:21:31 | 显示全部楼层
感谢楼主,辛苦了
发表于 2017-3-23 22:49:33 | 显示全部楼层

感谢楼主,辛苦了
发表于 2017-4-17 15:05:49 | 显示全部楼层
见识了刘真的3D魅舞!!!!!!!!!!!!!!!!!!
发表于 2017-7-17 21:41:37 | 显示全部楼层
文件有 点大,不知能下载不?
发表于 2017-9-30 13:49:48 | 显示全部楼层
提示: 作者被禁止或删除 内容自动屏蔽
 楼主| 发表于 2017-9-30 13:55:57 | 显示全部楼层
lenovoliutao 发表于 2017-9-30 13:49
https://yunpan.cn/ck5S6Z2JpL3KS

灌水真的那么好玩吗?
您需要登录后才可以回帖 登录 | 立即注册

本版积分规则

QQ|Archiver|手机版|小黑屋|如花高清MTV论坛Ⅱ

GMT+8, 2017-11-23 17:29 , Processed in 0.051910 second(s), 24 queries .

Powered by Discuz! X3.4

© 2001-2017 Comsenz Inc.

快速回复 返回顶部 返回列表