如花高清MTV论坛Ⅱ

 找回密码
 立即注册
搜索
热搜: 高清 VOB HD
查看: 584|回复: 18

[HD现场] [盛云]郭美美 - 爱情女神(高清翡翠台现场版)[TS][59M]

[复制链接]
发表于 2017-2-18 15:04:32 | 显示全部楼层

立即注册,回复帖子下载更多高清MTV!

您需要 登录 才可以下载或查看,没有帐号?立即注册

x
本帖最后由 爱上高清SL 于 2017-2-18 15:07 编辑

郭美美 - 爱情女神(高清翡翠台现场版).ts.jpg
General
ID                             : 1 (0x1)
Complete name                  : F:\郭美美 - 爱情女神(高清翡翠台现场版).ts
Format                         : MPEG-TS
File size                      : 59.2 MiB
Duration                       : 2mn 12s
Overall bit rate mode          : Variable
Overall bit rate               : 3 754 Kbps
Maximum Overall bit rate       : 35.5 Mbps

Video
ID                             : 4113 (0x1011)
Menu ID                        : 1 (0x1)
Format                         : AVC
Format/Info                    : Advanced Video Codec
Format profile                 : [email protected]
Format settings, CABAC         : Yes
Format settings, ReFrames      : 2 frames
Codec ID                       : 27
Duration                       : 2mn 12s
Bit rate mode                  : Variable
Bit rate                       : 3 180 Kbps
Maximum bit rate               : 38.0 Mbps
Width                          : 1 280 pixels
Height                         : 720 pixels
Display aspect ratio           : 16:9
Frame rate                     : 25.000 fps
Color space                    : YUV
Chroma subsampling             : 4:2:0
Bit depth                      : 8 bits
Scan type                      : Progressive
Bits/(Pixel*Frame)             : 0.138
Stream size                    : 50.2 MiB (85%)

Audio
ID                             : 4352 (0x1100)
Menu ID                        : 1 (0x1)
Format                         : AC-3
Format/Info                    : Audio Coding 3
Mode extension                 : CM (complete main)
Format settings, Endianness    : Big
Codec ID                       : 129
Duration                       : 2mn 12s
Bit rate mode                  : Constant
Bit rate                       : 384 Kbps
Channel(s)                     : 6 channels
Channel positions              : Front: L C R, Side: L R, LFE
Sampling rate                  : 48.0 KHz
Frame rate                     : 31.250 fps (1536 spf)
Compression mode               : Lossy
Stream size                    : 6.06 MiB (10%)

游客,如果您要查看本帖隐藏内容请回复




评分

参与人数 1爱乐币 +1 活跃度 +1 收起 理由
suren + 1 + 1 感谢您的支持!

查看全部评分

发表于 2017-2-19 11:17:34 | 显示全部楼层
来支持一下楼主,谢谢分享
发表于 2017-2-21 19:26:12 | 显示全部楼层
这首歌,真的很好听
发表于 2017-2-25 21:25:45 | 显示全部楼层
没积分下不了
发表于 2017-5-30 23:08:23 | 显示全部楼层
这个可以有
发表于 2017-10-17 23:10:06 | 显示全部楼层
经典MV,下载欣赏了
发表于 2018-5-23 12:25:13 | 显示全部楼层
感謝分享 高清翡翠台
发表于 2018-10-23 00:33:39 | 显示全部楼层
真的很好听
发表于 2018-11-6 22:52:02 | 显示全部楼层
多谢楼主分享
发表于 2019-3-25 15:16:50 | 显示全部楼层
希望没失效

发表于 2019-4-13 13:54:12 | 显示全部楼层
好东西,久闻大名,今天有幸得看
发表于 2019-5-13 10:05:57 | 显示全部楼层
好贴就要回复。
发表于 2019-6-25 15:13:54 | 显示全部楼层
上帝是女孩的中文版,很好听
发表于 2019-9-15 11:37:06 来自手机 | 显示全部楼层
非常喜欢的一首歌
发表于 5 天前 | 显示全部楼层
多谢福利,谢啦!!☆⌒(*^-゜)v
发表于 5 天前 | 显示全部楼层
多谢福利,谢啦!!☆⌒(*^-゜)v
您需要登录后才可以回帖 登录 | 立即注册

本版积分规则

QQ|Archiver|手机版|小黑屋|如花高清MTV论坛Ⅱ

GMT+8, 2019-11-14 12:52 , Processed in 0.080131 second(s), 24 queries .

Powered by Discuz! X3.4

© 2001-2017 Comsenz Inc.

快速回复 返回顶部 返回列表