如花高清MTV论坛Ⅱ

 找回密码
 立即注册
搜索
热搜: 高清 VOB HD
查看: 1279|回复: 42

[MV VOB] [百度]Nana - Lonely(弄你的士高)[VOB][251M]

[复制链接]
发表于 2016-10-16 22:06:21 | 显示全部楼层

立即注册,回复帖子下载更多高清MTV!

您需要 登录 才可以下载或查看,没有帐号?立即注册

x
[www.ruhuamtv.com]Nana - Lonely(弄你的士高).vob.jpg
General
Complete name                  : D:\[www.ruhuamtv.com]Nana - Lonely(弄你的士高).vob
Format                         : MPEG-PS
File size                      : 251 MiB
Duration                       : 3mn 50s
Overall bit rate mode          : Variable
Overall bit rate               : 9 140 Kbps
Writing library                : (c) 1998-2011 Womble Multimedia, Inc. / MPEG Video Wizard DVD 5.0.1.100 (03/2011) / Dec 15 2011

Video
ID                             : 224 (0xE0)
Format                         : MPEG Video
Format version                 : Version 2
Format profile                 : [email protected]
Format settings, BVOP          : No
Format settings, Matrix        : Default
Format settings, GOP           : Variable
Duration                       : 3mn 50s
Bit rate mode                  : Variable
Bit rate                       : 7 422 Kbps
Maximum bit rate               : 8 255 Kbps
Width                          : 720 pixels
Height                         : 576 pixels
Display aspect ratio           : 4:3
Frame rate                     : 25.000 fps
Standard                       : PAL
Color space                    : YUV
Chroma subsampling             : 4:2:0
Bit depth                      : 8 bits
Scan type                      : Progressive
Scan order                     : Bottom Field First
Compression mode               : Lossy
Bits/(Pixel*Frame)             : 0.716
Time code of first frame       : 00:00:00:00
Time code source               : Group of pictures header
Stream size                    : 204 MiB (81%)
Writing library                : (c) 1998-2011 Womble Multimedia, Inc. / MPEG Video Wizard DVD 5.0.1.100 (03/2011) / Dec 15 2011

Audio
ID                             : 189 (0xBD)-160 (0xA0)
Format                         : PCM
Format settings, Endianness    : Big
Format settings, Sign          : Signed
Muxing mode                    : DVD-Video
Duration                       : 3mn 50s
Bit rate mode                  : Constant
Bit rate                       : 1 536 Kbps
Channel(s)                     : 2 channels
Sampling rate                  : 48.0 KHz
Bit depth                      : 16 bits
Stream size                    : 42.3 MiB (17%)

Menu



解压密码: www.ruhuamtv.com
游客,如果您要查看本帖隐藏内容请回复


评分

参与人数 1爱乐币 +3 活跃度 +1 收起 理由
迷你千寻 + 3 + 1 舞厅经常听到~

查看全部评分

发表于 2016-10-16 22:19:49 | 显示全部楼层
这个是属于DJ类的,很不错的。
发表于 2016-10-17 08:58:42 | 显示全部楼层
欣赏下原版的
发表于 2016-10-17 08:59:16 | 显示全部楼层
欣赏下原版的
发表于 2016-10-19 02:22:35 | 显示全部楼层
谢谢流浪歌手爱上高清SL分享 ....Nana - Lonely(弄你的士高).
发表于 2016-10-23 15:14:16 | 显示全部楼层
很好听,下载看看!~
发表于 2016-11-22 05:05:05 | 显示全部楼层
HAHA !JINGDIAN !
发表于 2017-10-10 19:03:17 | 显示全部楼层
不错哦 谢谢楼主提供分享
发表于 2017-11-2 16:14:24 | 显示全部楼层
非常好听的一首歌,谢谢楼主分享。
发表于 2017-12-1 08:16:12 | 显示全部楼层
经典老歌了,不容易啊、
发表于 2017-12-1 08:24:48 | 显示全部楼层
谢谢分享,看看这个MV
发表于 2017-12-2 14:01:56 | 显示全部楼层
这个是属于DJ类的,很不错的。
发表于 2017-12-19 12:54:21 | 显示全部楼层
thank you !very much
发表于 2018-1-13 21:00:18 | 显示全部楼层
说唱版本的?
发表于 2018-1-14 22:49:11 | 显示全部楼层
喜欢的士高。
发表于 2018-1-15 05:42:05 | 显示全部楼层
这个旋律听一听
发表于 2018-2-22 18:04:28 | 显示全部楼层
感谢楼主的分享
发表于 2018-3-8 23:44:18 | 显示全部楼层
哈哈,好好,收下了
发表于 2018-3-20 13:13:26 | 显示全部楼层
这个太经典了!!
发表于 2018-3-31 23:19:10 | 显示全部楼层
这个太经典了!!
发表于 2018-5-28 17:05:26 | 显示全部楼层
谢谢楼主提供分享
发表于 2018-6-19 19:02:34 | 显示全部楼层
经典老歌了,谢谢楼主分享
发表于 2018-6-23 09:24:29 | 显示全部楼层
这首歌不错
您需要登录后才可以回帖 登录 | 立即注册

本版积分规则

QQ|Archiver|手机版|小黑屋|如花高清MTV论坛Ⅱ

GMT+8, 2019-9-17 10:55 , Processed in 0.082457 second(s), 26 queries .

Powered by Discuz! X3.4

© 2001-2017 Comsenz Inc.

快速回复 返回顶部 返回列表