查看: 245|回复: 11

[高清演示] [百度]创维试机片 性感美女[3D 上下格式][MPG][406M][1080P]

[复制链接]
发表于 2016-10-14 22:21:06 | 显示全部楼层 |阅读模式

立即注册,回复帖子下载更多高清MTV!

您需要 登录 才可以下载或查看,没有帐号?立即注册

x
本帖最后由 爱上高清SL 于 2016-10-15 13:52 编辑

QQ图片20161014221102.jpg
QQ图片20161014221109.jpg

QQ图片20161014221117.jpg

QQ图片20161014221122.jpg

创维试机片 性感美女[3D 上下格式][1080P].JPG

C:\Users\Administrator\Desktop\创维试机片 性感美女[3D 上下格式][1080P].mpg
   General
      Complete name : C:\Users\Administrator\Desktop\创维试机片 性感美女[3D 上下格式][1080P].mpg
      Format : MPEG-PS
      File size : 406 MiB
      Duration : 1mn 50s
      Overall bit rate mode : Variable
      Overall bit rate : 30.8 Mbps
   Video #224
      ID : 224 (0xE0)
      Format : MPEG Video
      Format version : Version 2
      Format profile : Main@High
      Format settings, BVOP : Yes
      Format settings, Matrix : Default
      Format settings, GOP : M=3, N=15
      Duration : 1mn 50s
      Bit rate mode : Variable
      Bit rate : 30.0 Mbps
      Width : 1 920 pixels
      Height : 1 080 pixels
      Display aspect ratio : 16:9
      Frame rate : 29.970 fps
      Color space : YUV
      Chroma subsampling : 4:2:0
      Bit depth : 8 bits
      Scan type : Progressive
      Compression mode : Lossy
      Bits/(Pixel*Frame) : 0.483
      Time code of first frame : 00:00:00;00
      Time code source : Group of pictures header
      GOP, Open/Closed : Open
      Stream size : 393 MiB (97%)
      GOP, Open/Closed of first frame : Closed
   Audio #192
      ID : 192 (0xC0)
      Format : MPEG Audio
      Format version : Version 1
      Format profile : Layer 2
      Duration : 1mn 50s
      Bit rate mode : Constant
      Bit rate : 384 Kbps
      Channel(s) : 2 channels
      Sampling rate : 48.0 KHz
      Compression mode : Lossy
      Stream size : 5.06 MiB (1%)

游客,如果您要查看本帖隐藏内容请回复


这个3D演示是老资源了 细心的人网页上面就找到了
社区是DVD论坛 一般情况下 发这种帖子不应该 不过呢 这个演示片的3D效果非常不错 出屏效果很好很好的 我个人非常喜欢
决定就发这一帖好了 以后这种贴少发就是了!
发表于 2016-10-14 22:29:10 | 显示全部楼层
是看着不错试试看。
发表于 2016-10-14 22:56:30 | 显示全部楼层
已经添加了 高清演示 分类
资源多的话再开版块
毕竟这类演示都有 音乐
虽然说不出名字,,
发表于 2016-10-15 10:41:55 | 显示全部楼层
本帖最后由 秋风无情0001 于 2016-10-15 11:01 编辑

正好有3D,眼镜,下来看看,谢谢分享 补档吧
 楼主| 发表于 2016-10-15 13:53:34 | 显示全部楼层
秋风无情0001 发表于 2016-10-15 10:41
正好有3D,眼镜,下来看看,谢谢分享 补档吧

已经做了压缩包换百度云分享了 这下应该不会在被和谐了~
发表于 2016-10-15 14:46:09 | 显示全部楼层
爱上高清SL 发表于 2016-10-15 13:53
已经做了压缩包换百度云分享了 这下应该不会在被和谐了~

灰常感谢
发表于 2016-10-16 21:34:46 | 显示全部楼层
迟早都要给发高清的楼主加分的,
发表于 2016-10-17 22:40:02 | 显示全部楼层
发现越来越喜欢上这个网站了,不管怎么说,先支持下楼主所发的极品资源。。。
发表于 2016-10-23 15:22:07 | 显示全部楼层
很不错,下载看看!~
发表于 2017-2-10 18:53:25 | 显示全部楼层
创维试机片 性感美女
发表于 2017-7-17 21:39:20 | 显示全部楼层
看看有没够格能下载?
发表于 2017-8-6 15:07:45 | 显示全部楼层
支持一下,经典啊。。。
您需要登录后才可以回帖 登录 | 立即注册

本版积分规则

QQ|小黑屋|手机版|Archiver|如花高清MTV论坛Ⅱ

GMT+8, 2017-9-25 04:59 , Processed in 0.027196 second(s), 24 queries .

Powered by Discuz! X3.1

© 2001-2013 Comsenz Inc. Design Singcere!

快速回复 返回顶部 返回列表