如花高清MTV论坛Ⅱ

 找回密码
 立即注册
搜索
热搜: 高清 VOB HD
查看: 334|回复: 25

[MV镜像] [百度]刘亦菲 - 刘亦菲同名专辑[DVDISO][1.25G]

[复制链接]
发表于 2019-9-19 21:38:38 | 显示全部楼层

立即注册,回复帖子下载更多高清MTV!

您需要 登录 才可以下载或查看,没有帐号?立即注册

x
KMP-DVD[(000561)20-31-19].JPG
VTS_01_1.JPG
VTS_01_2.JPG


曲目:
01. 泡芙女孩
02. 放飞美丽
03. 就要我滋味
04. 心悸


V:\VIDEO_TS\VTS_01_1.VOB
   General
      Complete name : V:\VIDEO_TS\VTS_01_1.VOB
      Format : MPEG-PS
      File size : 1 023 MiB
      Duration : 5mn 18s
      Overall bit rate : 26.9 Mbps
   Video #224
      ID : 224 (0xE0)
      Format : MPEG Video
      Format version : Version 2
      Format profile : [email protected]
      Format settings, BVOP : Yes
      Format settings, Matrix : Custom
      Format settings, GOP : Variable
      Format settings, picture structure : Frame
      Duration : 5mn 18s
      Bit rate : 26.1 Mbps
      Maximum bit rate : 8 800 Kbps
      Width : 720 pixels
      Height : 480 pixels
      Display aspect ratio : 4:3
      Frame rate : 29.970 fps
      Standard : NTSC
      Color space : YUV
      Chroma subsampling : 4:2:0
      Bit depth : 8 bits
      Scan type : Interlaced
      Scan order : Top Field First
      Compression mode : Lossy
      Bits/(Pixel*Frame) : 2.523
      Time code of first frame : 00:01:28:00
      Time code source : Group of pictures header
      GOP, Open/Closed : Closed
      Stream size : 993 MiB (97%)
   Audio #189-128
      ID : 189 (0xBD)-128 (0x80)
      Format : AC-3
      Format/Info : Audio Coding 3
      Mode extension : CM (complete main)
      Format settings, Endianness : Big
      Muxing mode : DVD-Video
      Duration : 5mn 18s
      Bit rate mode : Constant
      Bit rate : 256 Kbps
      Channel(s) : 2 channels
      Channel positions : Front: L R
      Sampling rate : 48.0 KHz
      Bit depth : 16 bits
      Compression mode : Lossy
      Stream size : 9.73 MiB (1%)


解压密码:www.ruhuamtv.com
游客,本帖隐藏的内容需要积分高于 9 才可浏览,您当前积分为 0


评分

参与人数 1爱乐币 +10 收起 理由
拥有 + 10 感谢您的支持!

查看全部评分

发表于 2019-9-19 22:02:48 | 显示全部楼层
请注意标题歌手名和专辑名之间的空格符,还有积分隐藏请使用两次[hide]代码,否则其他会员只要达到积分不需要回复就能看到隐藏内容,已经帮你修改好,请点帖子编辑查看如何设置代码,下次发帖注意。
发表于 2019-9-19 22:27:54 | 显示全部楼层
谢谢分享很真欢
发表于 2019-9-19 23:19:24 | 显示全部楼层
谢谢分享,刘亦菲早期资源
发表于 2019-9-20 08:19:32 | 显示全部楼层
谢谢分享很真欢
发表于 2019-9-20 10:24:28 | 显示全部楼层
刘亦菲的早期资源,支持了。
发表于 2019-9-20 13:41:56 | 显示全部楼层
感谢分享 大力支持
发表于 2019-9-20 18:50:38 | 显示全部楼层
很多人的女神啊
 楼主| 发表于 2019-9-20 20:17:22 | 显示全部楼层
admin 发表于 2019-9-19 22:02
请注意标题歌手名和专辑名之间的空格符,还有积分隐藏请使用两次[hide]代码,否则其他会员只要达到积分不需 ...

谢谢管理员更改
发表于 2019-9-20 23:54:23 | 显示全部楼层
谢谢资源分享 台版MV!
发表于 2019-9-23 09:16:02 | 显示全部楼层
感谢楼主分享!
发表于 2019-9-25 10:46:58 | 显示全部楼层
感谢分享 歌曲还很好听
发表于 2019-9-26 13:20:39 | 显示全部楼层
一直在找这个资源终于有了!
发表于 2019-10-7 19:31:27 | 显示全部楼层
女神也唱歌了
发表于 2019-10-10 18:14:20 | 显示全部楼层
感谢楼主的无私分享!
发表于 2019-10-11 14:45:27 | 显示全部楼层
这个可以下!
您需要登录后才可以回帖 登录 | 立即注册

本版积分规则

QQ|Archiver|手机版|小黑屋|如花高清MTV论坛Ⅱ

GMT+8, 2019-10-20 09:05 , Processed in 0.060350 second(s), 25 queries .

Powered by Discuz! X3.4

© 2001-2017 Comsenz Inc.

快速回复 返回顶部 返回列表