如花高清MTV论坛Ⅱ

 找回密码
 立即注册
搜索
热搜: 高清 VOB HD
查看: 98|回复: 4

[HD现场] [百度]王力宏 孙楠 - 相亲相爱(CCTV高清采集)[MKV][346M]

[复制链接]
发表于 2019-9-8 16:55:51 | 显示全部楼层

立即注册,回复帖子下载更多高清MTV!

您需要 登录 才可以下载或查看,没有帐号?立即注册

x
一直找不到合适的收藏版本,无奈自己找了原资源完美截取的片段,适合收藏! 2010春晚-王力宏-相亲相爱.1080p.mkv.jpg
2010春晚-王力宏-相亲相爱.1080p.mkv_20190908_163133.645.jpg
2010春晚-王力宏-相亲相爱.1080p.mkv_20190908_163414.414.jpg
2010春晚-王力宏-相亲相爱.1080p.mkv_20190908_163542.533.jpg
2010春晚-王力宏-相亲相爱.1080p.mkv_20190908_163634.572.jpg
General
Unique ID                      : 207792505604897450665796903896982324164 (0x9C5361811D2B8279B0D86EAB2CC583C4)
Complete name                  : E:\mv\2010春晚-王力宏-相亲相爱.1080p.mkv
Format                         : Matroska
Format version                 : Version 2
File size                      : 346 MiB
Duration                       : 4 min 42 s
Overall bit rate               : 10.3 Mb/s
Encoded date                   : UTC 2019-09-06 00:59:14
Writing application            : mkvmerge v4.8.0 ('I Got The...') built on May 24 2011 03:12:58
Writing library                : libebml v1.2.0 + libmatroska v1.1.0

Video
ID                             : 1
Format                         : AVC
Format/Info                    : Advanced Video Codec
Format profile                 : [email protected]
Format settings                : CABAC / 3 Ref Frames
Format settings, CABAC         : Yes
Format settings, Reference fra : 3 frames
Muxing mode                    : Header stripping
Codec ID                       : V_MPEG4/ISO/AVC
Duration                       : 4 min 42 s
Bit rate                       : 9 621 kb/s
Width                          : 1 920 pixels
Height                         : 1 080 pixels
Display aspect ratio           : 16:9
Frame rate mode                : Constant
Frame rate                     : 25.000 FPS
Color space                    : YUV
Chroma subsampling             : 4:2:0
Bit depth                      : 8 bits
Scan type                      : Progressive
Bits/(Pixel*Frame)             : 0.186
Stream size                    : 324 MiB (94%)
Title                          : 2010年CCTV春节联欢晚会[email protected]
Language                       : Chinese
Default                        : Yes
Forced                         : No

Audio
ID                             : 2
Format                         : AC-3
Format/Info                    : Audio Coding 3
Commercial name                : Dolby Digital
Muxing mode                    : Header stripping
Codec ID                       : A_AC3
Duration                       : 4 min 42 s
Bit rate mode                  : Constant
Bit rate                       : 448 kb/s
Channel(s)                     : 2 channels
Channel layout                 : L R
Sampling rate                  : 48.0 kHz
Frame rate                     : 31.250 FPS (1536 SPF)
Bit depth                      : 16 bits
Compression mode               : Lossy
Stream size                    : 15.1 MiB (4%)
Title                          : 2010年CCTV春节联欢晚会[email protected]
Language                       : Chinese
Service kind                   : Complete Main
Default                        : Yes
Forced                         : No

链接:https://pan.baidu.com/s/1Oi0y5y9PG0ZuCvMaFBSNiQ

复制这段内容后打开百度网盘手机App,操作更方便哦

解压密码:www.ruhuamtv.com
游客,如果您要查看本帖隐藏内容请回复


评分

参与人数 1爱乐币 +2 收起 理由
拥有 + 2 感谢您的支持!

查看全部评分

发表于 2019-9-8 20:41:55 | 显示全部楼层
谢谢分享,我很喜欢。
发表于 2019-9-9 00:00:28 | 显示全部楼层
这么经典的合唱歌曲,可惜没有TS源码版本,遗憾!
发表于 2019-9-9 00:03:44 | 显示全部楼层
谢谢分享,很喜欢的歌
发表于 5 天前 | 显示全部楼层
谢谢分享哦,
您需要登录后才可以回帖 登录 | 立即注册

本版积分规则

QQ|Archiver|手机版|小黑屋|如花高清MTV论坛Ⅱ

GMT+8, 2019-9-17 10:54 , Processed in 0.053885 second(s), 25 queries .

Powered by Discuz! X3.4

© 2001-2017 Comsenz Inc.

快速回复 返回顶部 返回列表